Oopiri (2016.PDvdRip.700Mb.Xvid) [DuNo]

Media Info For Xvid 700Mb Print

Code:


General
Complete name                            : C:\Users\Desktop\Oopiri (2016.700Mb.Xvid) [DuNo]\Oopiri (2016.700Mb.Xvid) [DuNo].avi
Format                                  : AVI
Format/Info                              : Audio Video Interleave
File size                                : 705 MiB
Duration                                : 2h 29mn
Overall bit rate                        : 661 Kbps

Video
ID                                      : 0
Format                                  : MPEG-4 Visual
Format profile                          : [email protected]
Format settings, BVOP                    : No
Format settings, QPel                    : No
Format settings, GMC                    : No warppoints
Format settings, Matrix                  : Default (H.263)
Codec ID                                : XVID
Codec ID/Hint                            : XviD
Duration                                : 2h 29mn
Source duration                          : 2h 29mn
Bit rate                                : 584 Kbps
Width                                    : 640 pixels
Height                                  : 272 pixels
Display aspect ratio                    : 2.35:1
Frame rate                              : 25.000 fps
Color space                              : YUV
Chroma subsampling                      : 4:2:0
Bit depth                                : 8 bits
Scan type                                : Progressive
Compression mode                        : Lossy
Bits/(Pixel*Frame)                      : 0.134
Stream size                              : 623 MiB (88%)
Writing library                          : XviD 1.1.2 (UTC 2006-11-01)

Audio
ID                                      : 1
Format                                  : MPEG Audio
Format version                          : Version 1
Format profile                          : Layer 3
Mode                                    : Joint stereo
Mode extension                          : MS Stereo
Codec ID                                : 55
Codec ID/Hint                            : MP3
Duration                                : 2h 29mn
Bit rate mode                            : Constant
Bit rate                                : 64.0 Kbps
Channel(s)                              : 2 channels
Sampling rate                            : 48.0 KHz
Compression mode                        : Lossy
Stream size                              : 68.3 MiB (10%)
Alignment                                : Split accross interleaves
Interleave, duration                    : 24 ms (0.60 video frame)



Screenshot’s For 700Mb Xvid Print



Code:


http://www.secureupload.eu/b1xnk4xnl2c0/Oopiri__2016.700Mb.Xvid___DuNo_.avi


Download oopiri.2016.pdvdrip.700mb.xvid.duno.zip
Direct Link


Download


Download oopiri.2016.pdvdrip.700mb.xvid.duno.zip
Mediafire


Download


Download oopiri.2016.pdvdrip.700mb.xvid.duno.zip
Uploaded.to


Download

Both comments and pings are currently closed.

Comments are closed.